Магазин Чан-су / Jangsoosanghwe (2015) BDRip 720p | L2




Информация о фильме
Название: Магазин Чан-су
Оригинальное название: Jangsoosanghwe
Год выхода: 2015
Жанр: семейный, мелодрама
Режиссер: Кан Джэ-гю
В ролях: Пак Кын-хён, Юн Ё-джон, Чо Джин-ун, Хан Джи-мин, Ким Джон-тхэ, Хван У-сыль-хе, Ли Джун-хёк, Ким Джэ-хва, Мун Га-ён, Пак Чхан-ёль

Описание: Сон-чхиль — сварливый 70-летний дедуля, он живет один и подрабатывает в местном магазине. Чан-су, владелец магазина и руководитель городского проекта по перестройке, безуспешно пытается получить подпись Сон-чхиля, т. к. тот является последним упрямцем, из-за которого откладывается реализация проекта. И тут Сон-чхиль знакомится с всё еще привлекательной женщиной в возрасте Гым-ним, которая владеет цветочным магазином по соседству. Несмотря на возраст, дедуля оказывается не слишком опытным в любовных делах, и весь район помогает ему ухаживать за симпатичной соседкой в надежде, что сердце старика смягчится, и он подпишет заявку на реконструкцию.



Страна: Южная Корея
Продолжительность: 01:51:36
Перевод: Любительский (двухголосый закадровый) SoftBox / Перевод: ФСГ 'EXO ONE'
Cубтитры: английские
Оригинальная аудиодорожка: корейский

Файл
Кодек: x264
Качество: BDRip 720p
Видео: 1280x538 (2.40:1) at 23,976 fps, 5510 Кbps, 0.334 bpp
Аудио 1: AC3; 192 Kbps; CBR; 2 ch; 48 khz | DVO - SoftBox |
Аудио 2: AC3; 640 Kbps; CBR; 6 ch; 48 khz | Корейский |

Скриншоты

MediaInfo
General
Unique ID : 207328304840724327027008786982034061025 (0x9BF9FAA3C0E333A3912C953948B5B6E1)
Complete name : Магазин Чан-су.2015.DVO.720p.BluRay.x264-FTO.mkv
Format : Matroska
Format version : Version 4 / Version 2
File size : 5.04 GiB
Duration : 1h 51mn
Overall bit rate : 6 471 Kbps
Movie name : Salut d'Amour [2015] [720p] DVO
Encoded date : UTC 2017-01-13 18:59:16
Writing application : mkvmerge v7.8.0 ('River Man') 32bit built on Mar 27 2015 16:18:02
Writing library : libebml v1.3.1 + libmatroska v1.4.2

Video
ID : 1
Format : AVC
Format/Info : Advanced Video Codec
Format profile : High@L4.1
Format settings, CABAC : Yes
Format settings, ReFrames : 12 frames
Codec ID : V_MPEG4/ISO/AVC
Duration : 1h 51mn
Bit rate : 5 510 Kbps
Width : 1 280 pixels
Height : 538 pixels
Display aspect ratio : 2.40:1
Frame rate mode : Constant
Frame rate : 23.976 fps
Color space : YUV
Chroma subsampling : 4:2:0
Bit depth : 8 bits
Scan type : Progressive
Bits/(Pixel*Frame) : 0.334
Stream size : 4.30 GiB (85%)
Writing library : x264 core 148 r2638 7599210
Encoding settings : cabac=1 / ref=12 / deblock=1:-3:-3 / analyse=0x3:0x133 / me=tesa / subme=11 / psy=1 / psy_rd=1.05:0.00 / mixed_ref=1 / me_range=24 / chroma_me=1 / trellis=2 / 8x8dct=1 / cqm=0 / deadzone=21,11 / fast_pskip=0 / chroma_qp_offset=-2 / threads=12 / lookahead_threads=3 / sliced_threads=0 / nr=0 / decimate=1 / interlaced=0 / bluray_compat=0 / constrained_intra=0 / bframes=11 / b_pyramid=2 / b_adapt=2 / b_bias=0 / direct=3 / weightb=1 / open_gop=0 / weightp=2 / keyint=250 / keyint_min=23 / scenecut=40 / intra_refresh=0 / rc=crf / mbtree=0 / crf=15.0 / qcomp=0.70 / qpmin=0 / qpmax=69 / qpstep=4 / ip_ratio=1.40 / pb_ratio=1.30 / aq=1:0.70
Language : Korean
Default : Yes
Forced : No
Matrix coefficients : BT.709
Color range : Limited

Audio #1
ID : 2
Format : AC-3
Format/Info : Audio Coding 3
Mode extension : CM (complete main)
Format settings, Endianness : Big
Codec ID : A_AC3
Duration : 1h 51mn
Bit rate mode : Constant
Bit rate : 192 Kbps
Channel(s) : 2 channels
Channel positions : Front: L R
Sampling rate : 48.0 KHz
Bit depth : 16 bits
Compression mode : Lossy
Stream size : 153 MiB (3%)
Title : DVO [SoftBox]
Language : Russian
Default : Yes
Forced : No

Audio #2
ID : 3
Format : AC-3
Format/Info : Audio Coding 3
Mode extension : CM (complete main)
Format settings, Endianness : Big
Codec ID : A_AC3
Duration : 1h 51mn
Bit rate mode : Constant
Bit rate : 640 Kbps
Channel(s) : 6 channels
Channel positions : Front: L C R, Side: L R, LFE
Sampling rate : 48.0 KHz
Bit depth : 16 bits
Compression mode : Lossy
Stream size : 511 MiB (10%)
Language : Korean
Default : No
Forced : No

Text
ID : 4
Format : UTF-8
Codec ID : S_TEXT/UTF8
Codec ID/Info : UTF-8 Plain Text
Language : English
Default : No
Forced : No

Menu
00:00:00.000 : en:00:00:00.000
00:08:18.873 : en:00:08:18.873
00:17:14.200 : en:00:17:14.200
00:24:59.373 : en:00:24:59.373
00:32:42.419 : en:00:32:42.419
00:41:36.327 : en:00:41:36.327
00:49:16.120 : en:00:49:16.120
00:58:02.145 : en:00:58:02.145
01:06:42.999 : en:01:06:42.999
01:15:36.991 : en:01:15:36.991
01:26:01.823 : en:01:26:01.823
01:36:55.018 : en:01:36:55.018


НазваниеМагазин Чан-су / Jangsoosanghwe (2015) BDRip 720p | L2
КатегорияЗарубежное Кино
Раздают0
Качают0
Добавлен12-02-2017 15:16:04 (19 минут назад)
Размер5.04 GB (5415909011 Bytes)
prostotor.ru © 2016 rss