Война против всех / War on Everyone (2016) HDRip | A




Производство: Великобритания | Head Gear Films, Kreo Films FZ, Metrol Technology
Жанр: Комедия, Криминал
Продолжительность: 01:37:54
Перевод: Авторский (одноголосый, закадровый) М. Яроцкий
Субтитры: Отсутствуют
Внимание! Ненормативная лексика
Режиссер: Джон Майкл МакДона
Продюсер: Крис Кларк, Флора Фернандес-Маренго, Фил Хант
Актеры: Александр Скарсгард, Майкл Пенья, Тесса Томпсон, Тео Джеймс, Стефани Сигман, Малкольм Баррет, Тейт Флетчер, Калеб Лэндри Джонс, Пол Райзер, Кит Джардин

Описание: Двое коррумпированных копов-отморозков из Нью-Мексико прессуют всех, кто попадается им под руку... или под колеса авто. Судьба подкидывает им шанс срубить целый миллион долларов, но на смачный куш также претендует эксцентричный английский лорд не без странных пристрастий. В борьбе за заслуженный улов напарники случайно узнают о стрёмных секретах красавчика-лорда и впрягаются нести возмездие. Плохим копам не терпится попробовать нечто совсем новое — борьбу за справедливость... ну, за то, как они понимают справедливость.



Релиз от: K.E.N
Качество: HDRip Сэмпл
Видео: 720x304 (2.37:1), 24 fps, XviD build 73 ~1672 kbps, 0.32 bit/pixel
Аудио: 48 kHz, AC3 Dolby Digital, 6 ch, ~448 kbps

Mediainfo:
Формат : AVI
Формат/Информация : Audio Video Interleave
Размер файла : 1,46 Гбайт
Продолжительность : 1 ч. 37 м.
Общий поток : 2130 Кбит/сек
Программа кодирования : VirtualDubMod 1.5.10.3 | www.virtualdub-fr.org || (build 2550/release)
Библиотека кодирования : VirtualDubMod build 2550/release

Видео
Идентификатор : 0
Формат : MPEG-4 Visual
Профиль формата : Advanced Simple@L5
Параметр BVOP формата : 1
Параметр QPel формата : Нет
Параметр GMC формата : Без точки перехода
Параметр матрицы формата : Выборочная
Идентификатор кодека : XVID
Идентификатор кодека/Подсказка : XviD
Продолжительность : 1 ч. 37 м.
Битрейт : 1672 Кбит/сек
Ширина : 720 пикселей
Высота : 304 пикселя
Соотношение сторон : 2,35:1
Частота кадров : 24,000 кадра/сек
Цветовое пространство : YUV
Субдискретизация насыщенности : 4:2:0
Битовая глубина : 8 бит
Тип развёртки : Прогрессивная
Метод сжатия : С потерями
Бит/(Пиксели*Кадры) : 0.318
Размер потока : 1,14 Гбайт (79%)
Библиотека кодирования : XviD 73

Аудио
Идентификатор : 1
Формат : AC-3
Формат/Информация : Audio Coding 3
Расширение режима : CM (complete main)
Параметр Endianness формата : Big
Идентификатор кодека : 2000
Продолжительность : 1 ч. 37 м.
Вид битрейта : Постоянный
Битрейт : 448 Кбит/сек
Каналы : 6 каналов
Расположение каналов : Front: L C R, Side: L R, LFE
Частота : 48,0 КГц
Частота кадров : 31,250 кадров/сек (1536 spf)
Битовая глубина : 16 бит
Метод сжатия : С потерями
Размер потока : 314 Мбайт (21%)
Выравнивание : Разделение по промежуткам
Продолжительность промежутка : 42 мс. (1,00 видеокадр)
Время предзагрузки промежутка : 500 мс.

Скриншоты:
НазваниеВойна против всех / War on Everyone (2016) HDRip | A
КатегорияЗарубежное Кино
Раздают0
Качают0
Добавлен12-02-2017 0:56:56 (20 секунд назад)
Размер1.46 GB (1563770880 Bytes)
ДобавленНазваниеРазмерПиры
06 Фев 17 Война против всех / War on Everyone (2016) HDRip от Scarabey | iTunes 1.40 GB 145  5
04 Фев 17 Война против всех / War on Everyone (2016) BDRip 1080p от ExKinoRay | iTunes 12.44 GB 36  2
04 Фев 17 Война против всех / War on Everyone (2016) BDRip 720p от ExKinoRay | iTunes 6.48 GB 44  1
02 Фев 17 Война против всех / War on Everyone (2016) BDRip 720p | iTunes 3.50 GB 54  1
01 Фев 17 Война против всех / War on Everyone (2016) BDRip-AVC от HELLYWOOD | iTunes 1.42 GB 64  2
01 Фев 17 Война против всех / War on Everyone (2016) BDRip 1080p от New-Team & qqss44 | iTunes 7.57 GB 34  5
01 Фев 17 Война против всех / War on Everyone (2016) BDRip 1080p | iTunes 7.58 GB 34  3
01 Фев 17 Война против всех / War on Everyone (2016) BDRip от ExKinoRay | iTunes 1.42 GB 23  0
prostotor.ru © 2016 rss