Планета Земля 2 / BBC: Planet Earth II (2016) BDRip 720p от NNNB | P2, L


Планета Земля 2 (мини-сериал) / Planet Earth II


Русское название: Планета Земля 2 (мини-сериал)
Оригинальное название: Planet Earth II
Год выпуска: 2016
Жанр: документальный
Выпущено: Великобритания
Режиссер: Джастин Андерсон
Перевод: Профессиональный двухголосый, Любительский одноголосый


Сюжет фильма:
Дэвид Аттенборо возвращается с этим захватывающим документальным сериалом, показывая дикую жизнь на Планете Земля. Невероятные по красоте пейзажи и самые заповедные и малоизученные уголки нашей планеты. Беспрецедентный для документального фильма бюджет и еще больший масштаб. Новейшие режимы съемки и детализации картинки, сделали возможным показать великолепие нашей природы во всех подробностях.




Список серий

1. Острова / Islands
2. Горы / Mountains
3. Джунгли / Jungles
4. Пустыни / Deserts
5. Пастбища / Grasslands
6. Города / Cities


Качество: BDRip 720p
Формат: AVC (библиотека кодирования x.264)
Контейнер (Расширение): MKV
Видео: 1280x720, 7300~8800 Кбит/сек, 25 кадр/сек, 0,362 Бит/[Пиксели*Кадры]
Аудио №1: русский / AC3 / 5.1 / 48 kHz / 640 kbps / |Любительский одноголосый, Дмитрий Чепусов (Jimmy J.)|
Аудио №2: русский / AC3 / 5.1 / 48 kHz / 640 kbps / |Профессиональный двухголосый, Омикрон| - только 1 серия
Аудио №3: английский / AC3 / 5.1 / 48 kHz / 640 kbps /
Субтитры: русские (Notabenoid), английские, английские (SDH)
Навигация по главам(Чаптеры): есть
Продолжительность: ~01:00:00 серия
Видеоряд DON

Релиз от: Группа:



*** Синхронизация звука и субтитров _denis_100
*** Перевод студии "Омикрон" только в 1 серии, но смотреть рекомендую в озвучке Дмитрия Чепусова (Jimmy J.) очень качественная работа.
*** Перевод "N-Team" для релиз-группы "Jimmy J"
*** Перевод и озвучивание "Омикрон" осуществлено в рамках сервиса от HDCLUB "Озвучивание". Спонсоры: Scorpion26, habal_garmin, banan58, Sytnik, lokolex, caban_2001, McClaud, yuriker, PinCho, qwerty2014, v41, ShaKh, Кириллка, lasvegas, Buxy, gorett, ek0, vrvz, Portos, Turko, stallk, aleksbmf, Rain, Максим360, laser10, iiiMia, superbizho, Igor_M, alvane, santa143, TimT, DOMINO, oopsmsk, AlexRozen, зема2011, Badj, RYBCHENKO, terminal, LLIukO, SpaceShuttle, svnnvs, ayazad, fire_lizard, misterr_, BaseJumper, Plesha, alrmothe, GoAInSIDE, game47, kornilov7, FuzzzzyBoy, nucl2, Wet21, diler7, Milvus, Ant1k91, Markalay, samos2001, YAGOUAROUNDI.

Original Television Soundtrack

MediaInfo

General
Format : Matroska
Format version : Version 2
File size : 4.29 GiB
Duration : 58 min
Overall bit rate : 10.5 Mb/s
Movie name : Planet Earth II.E01.Islands.(2016).BDRip.720p.[denis100]
Encoded date : UTC 2017-01-20 18:51:26
Writing application : mkvmerge v5.8.0 ('No Sleep / Pillow') built on Sep 2 2012 15:37:04
Writing library : libebml v1.2.3 + libmatroska v1.3.0

Video
ID : 1
Format : AVC
Format/Info : Advanced Video Codec
Format profile : High@L4.1
Format settings, CABAC : Yes
Format settings, ReFrames : 9 frames
Codec ID : V_MPEG4/ISO/AVC
Duration : 58 min
Bit rate : 8 340 kb/s
Width : 1 280 pixels
Height : 720 pixels
Display aspect ratio : 16:9
Frame rate mode : Constant
Frame rate : 25.000 FPS
Color space : YUV
Chroma subsampling : 4:2:0
Bit depth : 8 bits
Scan type : Progressive
Bits/(Pixel*Frame) : 0.362
Stream size : 3.42 GiB (80%)
Title : Planet Earth II.E01.Islands.(2016).BDRip.720p.[denis100]
Writing library : x264 core 142 r2431+42 c69a006 tMod [8-bit@4:2:0 X86_64]
Encoding settings : cabac=1 / ref=9 / deblock=1:-3:-3 / analyse=0x3:0x133 / me=umh / subme=11 / psy=1 / fade_compensate=0.00 / psy_rd=1.05:0.00 / mixed_ref=1 / me_range=32 / chroma_me=1 / trellis=2 / 8x8dct=1 / cqm=0 / deadzone=21,11 / fast_pskip=0 / chroma_qp_offset=-2 / threads=12 / lookahead_threads=3 / sliced_threads=0 / nr=0 / decimate=0 / interlaced=0 / bluray_compat=0 / constrained_intra=0 / fgo=0 / bframes=10 / b_pyramid=2 / b_adapt=2 / b_bias=0 / direct=3 / weightb=1 / open_gop=0 / weightp=2 / keyint=250 / keyint_min=25 / scenecut=40 / intra_refresh=0 / rc=crf / mbtree=0 / crf=16.0000 / qcomp=0.60 / qpmin=0:0:0 / qpmax=69:69:69 / qpstep=4 / ip_ratio=1.40 / pb_ratio=1.30 / aq=3:0.95 / aq-sensitivity=10.00 / aq-factor=1.00:1.00:1.00 / aq2=0 / aq3=0 / zones=2870,2926,crf=14.5/3183,3884,crf=14.0/22817,22888,crf=15.5/40484,40739,crf=15.0/49190,49284,crf=15.0/55500,55563,crf=14.0/74914,75037,crf=14.5/86460,86482,crf=14.0/86564,86616,crf=15.5/87042,87676,crf=14.0
Language : English
Default : Yes
Forced : No
Color range : Limited
Matrix coefficients : BT.709

Audio #1
ID : 2
Format : AC-3
Format/Info : Audio Coding 3
Mode extension : CM (complete main)
Format settings, Endianness : Big
Codec ID : A_AC3
Duration : 58 min
Bit rate mode : Constant
Bit rate : 640 kb/s
Channel(s) : 6 channels
Channel positions : Front: L C R, Side: L R, LFE
Sampling rate : 48.0 kHz
Frame rate : 31.250 FPS (1536 spf)
Compression mode : Lossy
Stream size : 268 MiB (6%)
Title : VO, Дмитрий Чепусов (Jimmy J.)
Language : Russian
Default : No
Forced : No

Audio #2
ID : 3
Format : AC-3
Format/Info : Audio Coding 3
Mode extension : CM (complete main)
Format settings, Endianness : Big
Codec ID : A_AC3
Duration : 58 min
Bit rate mode : Constant
Bit rate : 640 kb/s
Channel(s) : 6 channels
Channel positions : Front: L C R, Side: L R, LFE
Sampling rate : 48.0 kHz
Frame rate : 31.250 FPS (1536 spf)
Compression mode : Lossy
Stream size : 268 MiB (6%)
Title : DVO, Омикрон
Language : Russian
Default : No
Forced : No

Audio #3
ID : 4
Format : AC-3
Format/Info : Audio Coding 3
Mode extension : CM (complete main)
Format settings, Endianness : Big
Codec ID : A_AC3
Duration : 58 min
Bit rate mode : Constant
Bit rate : 640 kb/s
Channel(s) : 6 channels
Channel positions : Front: L C R, Side: L R, LFE
Sampling rate : 48.0 kHz
Frame rate : 31.250 FPS (1536 spf)
Compression mode : Lossy
Stream size : 268 MiB (6%)
Language : English
Default : No
Forced : No

Text #1
ID : 5
Format : UTF-8
Codec ID : S_TEXT/UTF8
Codec ID/Info : UTF-8 Plain Text
Title : Notabenoid
Language : Russian
Default : No
Forced : No

Text #2
ID : 6
Format : UTF-8
Codec ID : S_TEXT/UTF8
Codec ID/Info : UTF-8 Plain Text
Language : English
Default : No
Forced : No

Text #3
ID : 7
Format : UTF-8
Codec ID : S_TEXT/UTF8
Codec ID/Info : UTF-8 Plain Text
Title : SDH
Language : English
Default : No
Forced : No

Menu
00:00:00.000 : en:00:00:00.000
00:11:55.680 : en:00:11:55.680
00:18:03.000 : en:00:18:03.000
00:32:22.000 : en:00:32:22.000
00:41:18.680 : en:00:41:18.680
00:49:56.560 : en:00:49:56.560


Скриншоты
НазваниеПланета Земля 2 / BBC: Planet Earth II (2016) BDRip 720p от NNNB | P2, L
КатегорияНаука
Раздают0
Качают0
Добавлен22-01-2017 15:56:34 (46 секунд назад)
Размер23.22 GB (24936729682 Bytes)
ДобавленНазваниеРазмерПиры
24 Дек 16 BBC: Планета Земля 2 / Planet Earth II [S02] (2016) HDRip-AVC от KinoHitHD | L1 4.07 GB 55  15
23 Дек 16 BBC: Планета Земля 2 / Planet Earth II [S02] (2016) BDRip 720p | L1 12.15 GB 167  69
09 Дек 16 BBC: Планета Земля 2 / Planet Earth II [01 из 06] (2016) HDRip от Kaztorrents | P2 924.53 MB 7  0
06 Дек 16 BBC: Планета Земля 2 / Planet Earth II [01-05 из 06] (2016) BDRip 720p | Sub 17.48 GB 91  45
18 Ноя 16 BBC: Планета Земля 2 / Planet Earth II [02x01-02] (2016) HDTVRip 1080p от studia23 | Sub 9.18 GB 32  7
01 Ноя 16 Discovery: Загадки планеты Земля / What on Earth? [S02] (2015 -2016) HDTVRip 720p от GeneralFilm | P1 6.16 GB 7  0
03 Мар 16 Загадки планеты Земля / Discovery: What on Earth? [01-05 из 05] (2015) HDTVRip | P1 2.69 GB 16  2
28 Фев 16 Загадки планеты Земля / Discovery: What on Earth? [01-05 из 05] (2015) HDTVRip 720p от GeneralFilm | P1 6.41 GB 111  20
prostotor.ru © 2016 rss