Гранд тур / The Grand Tour [01х01-11 из 12] (2016) WEB-DLRip | Jetvis Studio & RG.paravozik, BMIRussian



Год выпуска: 2016
Страна: Великобритания и США
Жанр: Авто-шоу,документальный, ток-шоу, комедия.
Продолжительность:~01:11:00
Перевод: Перевод #1: Любительский многоголосый закадровый (Jetvis Studio & RG.paravozik)
Перевод #2: Любительский многоголосый закадровый (BMIRussian(1-6,10))


Субтитры: нет

Режиссер:Брайан Клейн, Фил Чурчуорд, Найджел Симпкисс, ...
Продюсер: Энди Уилман, Алекс Рентон, Грант Уордроп, ...
Композитор: Кристиан Хенсон
Художник: Джонатан Пол Грин, Джеймс Роуэлл, Саймон Киммел
Монтаж: Дэн Джеймс, Гай Савин, Джеймс Харт

В ролях: Ричард Хаммонд / Richard Hammond (играет самого себя - Presenter), Джереми Кларксон / Jeremy Clarkson (играет самого себя - Presenter), Джеймс Мэй / James May (играет самого себя - Presenter) ,

Описание: Автомобильное телешоу, созданное бывшими ведущими Топ гир — Джереми Кларксоном, Ричардом Хаммондом и Джеймсом Мэйем.



Без рекламы
Качество: WEB-DLRip
Формат: AVI
Видео кодек: XviD
Аудио кодеk: MP3
Видео: 656x368 (16:9), 23.976 fps, XviD 73, ~1090 Kbps
Аудио:
Аудио #1: MP3, 128 Kbps, 48.0 KHz, 2 ch -Jetvis Studio & RG.paravozik
Аудио #2: MP3, 128 Kbps, 48.0 KHz, 2 ch -BMIRussian(1-6,10)

МедиаИнфо
Общее
Полное имя : 01.avi
Формат : AVI
Формат/Информация : Audio Video Interleave
Размер файла : 691 Мбайт
Продолжительность : 1 ч. 11 м.
Общий поток : 1360 Кбит/сек
Программа кодирования : VirtualDubMod 1.5.10.3 | www.virtualdub-fr.org || (build 2550/release)
Библиотека кодирования : VirtualDubMod build 2550/release

Видео
Идентификатор : 0
Формат : MPEG-4 Visual
Профиль формата : Advanced Simple@L5
Параметр BVOP формата : 1
Параметр QPel формата : Нет
Параметр GMC формата : Без точки перехода
Параметр матрицы формата : Выборочная
Идентификатор кодека : DIVX
Идентификатор кодека/Информация : Project Mayo
Идентификатор кодека/Подсказка : DivX 4
Продолжительность : 1 ч. 11 м.
Битрейт : 1090 Кбит/сек
Ширина : 656 пикселей
Высота : 368 пикселей
Соотношение сторон : 16:9
Частота кадров : 23,976 (24000/1001) кадра/сек
Цветовое пространство : YUV
Субдискретизация насыщенности : 4:2:0
Битовая глубина : 8 бит
Тип развёртки : Прогрессивная
Метод сжатия : С потерями
Бит/(Пиксели*Кадры) : 0.188
Размер потока : 554 Мбайт (80%)
Библиотека кодирования : XviD 73

Аудио #1
Идентификатор : 1
Формат : MPEG Audio
Версия формата : Version 1
Профиль формата : Layer 3
Режим : Joint stereo
Расширение режима : MS Stereo
Идентификатор кодека : 55
Идентификатор кодека/Подсказка : MP3
Продолжительность : 1 ч. 11 м.
Вид битрейта : Постоянный
Битрейт : 128 Кбит/сек
Каналы : 2 канала
Частота : 48,0 КГц
Метод сжатия : С потерями
Размер потока : 65,1 Мбайт (9%)
Выравнивание : Соединение по промежуткам
Продолжительность промежутка : 42 мс. (1,00 видеокадр)
Время предзагрузки промежутка : 504 мс.

Аудио #2
Идентификатор : 2
Формат : MPEG Audio
Версия формата : Version 1
Профиль формата : Layer 3
Режим : Joint stereo
Идентификатор кодека : 55
Идентификатор кодека/Подсказка : MP3
Продолжительность : 1 ч. 11 м.
Вид битрейта : Постоянный
Битрейт : 128 Кбит/сек
Каналы : 2 канала
Частота : 48,0 КГц
Метод сжатия : С потерями
Размер потока : 65,1 Мбайт (9%)
Выравнивание : Соединение по промежуткам
Продолжительность промежутка : 42 мс. (1,00 видеокадр)
Время предзагрузки промежутка : 504 мс.

Скриншоты

НазваниеГранд тур / The Grand Tour [01х01-11 из 12] (2016) WEB-DLRip | Jetvis Studio & RG.paravozik, BMIRussian
КатегорияТВ-Шоу
Раздают0
Качают0
Добавлен22-01-2017 0:55:48 (58 секунд назад)
Размер6.17 GB (6624641024 Bytes)
ДобавленНазваниеРазмерПиры
21 Янв 17 Гранд тур / The Grand Tour [01x01-11 из 12] (2016) WEBRip 1080p | AlexFilm 67.05 GB 16  450
20 Янв 17 Гранд тур / The Grand Tour [01х01-10 из 12] (2016) WEBRip 1080p | Jaskier 61.91 GB 9  27
19 Янв 17 Гранд тур / The Grand Tour [01х01-10 из 12] (2016) WEBRip | Jaskier 7.23 GB 17  37
19 Янв 17 Гранд тур / The Grand Tour [01х01-10 из 12] (2016) WEBRip 720p | Jaskier 36.63 GB 5  32
15 Янв 17 Гранд тур / The Grand Tour [01x01-09 из 12] (2016) WEB-DLRip 1080p | P, L 65.29 GB 5  15
15 Янв 17 Гранд тур / The Grand Tour [01х01-09 из 12] (2016) WEB-DLRip | Jaskier, Gears Media 5.04 GB 7  12
15 Янв 17 Гранд тур / The Grand Tour [01х01-10 из 12] (2016) WEB-DLRip | Jetvis Studio & RG.paravozik, BMIRussian 5.58 GB 40  114
14 Янв 17 Гранд тур / The Grand Tour [01x01-10 из 13] (2016) WEBRip 720p | Gears Media 17.79 GB 83  236
prostotor.ru © 2016 rss