События Прошедшей Недели с Джоном Оливером / Last Week Tonight with John Oliver [03x05-26, 30] (2016) HDTVRip 720p | Sub




Информация о шоу
Название: События Прошедшей Недели с Джоном Оливером
Оригинальное название: Last Week Tonight with John Oliver
Год выхода: 2016
Жанр: новости, сатира, комедия
Выпущено: США / HBO

В ролях: Джон Оливер и все-все-все

Описание: Аналитическая программа HBO с британской язвой в качестве ведущего.



Качество: HDTVRip 720p
Перевод: Субтитры (hvblack)
Продолжительность: ~00:30:00

Файл
Формат: MKV
Видео: AVC (x264) | 1280x720p | 29,970 fps | ~3000 kbps
Аудио: AC3 | 48KHz | 2.0 (Front: L R) | ~384 kbps [Original]
Субтитры: Русские (SRT) - отдельным файлом

Список эпизодов
1. Voting
2. Abortion Laws
3. Trump
4. Special Districts

5. Шифрование
6. Стена
7. Политический сбор средств
8. Кредитные истории
9. Свинец
10. Пуэрто-Рико
11. Научные исследования
12. Служба 911
13. Первичные выборы и партсобрания
14. Скупщики долгов
15. Пенсия
16. Брискок (Brexit)
17. Допинг
18. Национальный съезд республиканской партии
19. Национальный съезд демократической партии
20. Упадок газетного дела
21. Автокредитование
22. Чартерные школы
23. Скандалы кандидатов в президенты
24. Полицейская ответственность
25. Тюрьма "Гуантанамо"
26. Президентские кандидаты от третьих партий
27. Opioid Abuse
28. School Segregation
29. Multilevel Marketing (MLM)

30. Избранный президент Трамп

MediaInfo
Общее
Уникальный идентификатор : 241511354557193729160694636216978294812 (0xB5B1651C6F2AF5F412CBD952BE3CC81C)
Полное имя : .../Last Week Tonight with John Oliver s03 720p/Last Week Tonight with John Oliver - s03e05.mkv
Формат : Matroska
Версия формата : Version 4 / Version 2
Размер файла : 625 Мбайт
Продолжительность : 28 м.
Общий поток : 3054 Кбит/сек
Дата кодирования : UTC 2016-03-14 03:59:13
Программа кодирования : mkvmerge v7.0.0 ('Where We Going') 64bit built on Jun 22 2014 08:19:39
Библиотека кодирования : libebml v1.3.0 + libmatroska v1.4.1

Видео
Идентификатор : 1
Формат : AVC
Формат/Информация : Advanced Video Codec
Профиль формата : High@L4.1
Параметр CABAC формата : Да
Параметр ReFrames формата : 5 кадров
Идентификатор кодека : V_MPEG4/ISO/AVC
Продолжительность : 28 м.
Битрейт : 2609 Кбит/сек
Ширина : 1280 пикселей
Высота : 720 пикселей
Соотношение сторон : 16:9
Режим частоты кадров : Постоянный
Частота кадров : 29,970 кадров/сек
Цветовое пространство : YUV
Субдискретизация насыщенности : 4:2:0
Битовая глубина : 8 бит
Тип развёртки : Прогрессивная
Бит/(Пиксели*Кадры) : 0.094
Размер потока : 534 Мбайт (85%)
Библиотека кодирования : x264 core 148 r2665 a01e339
Настройки программы : cabac=1 / ref=5 / deblock=1:0:0 / analyse=0x3:0x113 / me=umh / subme=8 / psy=1 / psy_rd=1.00:0.00 / mixed_ref=1 / me_range=16 / chroma_me=1 / trellis=1 / 8x8dct=1 / cqm=0 / deadzone=21,11 / fast_pskip=1 / chroma_qp_offset=-2 / threads=22 / lookahead_threads=3 / sliced_threads=0 / nr=0 / decimate=1 / interlaced=0 / bluray_compat=0 / constrained_intra=0 / bframes=3 / b_pyramid=2 / b_adapt=2 / b_bias=0 / direct=3 / weightb=1 / open_gop=0 / weightp=2 / keyint=250 / keyint_min=25 / scenecut=40 / intra_refresh=0 / rc_lookahead=50 / rc=crf / mbtree=1 / crf=18.0 / qcomp=0.60 / qpmin=0 / qpmax=69 / qpstep=4 / ip_ratio=1.40 / aq=1:1.00
Язык : English
Default : Да
Forced : Нет
Цветовой диапазон : Limited
Коэффициенты матрицы : BT.709

Аудио
Идентификатор : 2
Формат : AC-3
Формат/Информация : Audio Coding 3
Расширение режима : CM (complete main)
Параметр Endianness формата : Big
Идентификатор кодека : A_AC3
Продолжительность : 28 м.
Вид битрейта : Постоянный
Битрейт : 384 Кбит/сек
Каналы : 2 канала
Расположение каналов : Front: L R
Частота : 48,0 КГц
Метод сжатия : С потерями
Размер потока : 78,6 Мбайт (13%)
Default : Да
Forced : Нет

Скриншоты


НазваниеСобытия Прошедшей Недели с Джоном Оливером / Last Week Tonight with John Oliver [03x05-26, 30] (2016) HDTVRip 720p | Sub
КатегорияТВ-Шоу
Раздают0
Качают0
Добавлен08-01-2017 12:25:35 (10 минут назад)
Размер19.14 GB (20547222623 Bytes)
prostotor.ru © 2016 rss